Welcome to Doom9's Forum, THE in-place to be for everyone interested in DVD conversion.

Before you start posting please read the forum rules. By posting to this forum you agree to abide by the rules.

 

Go Back   Doom9's Forum > Video Encoding > MPEG-4 Encoder GUIs

Reply
 
Thread Tools Search this Thread Display Modes
Old 8th October 2010, 18:21   #241  |  Link
Whimick
Registered User
 
Join Date: Jun 2010
Location: Surrey, England
Posts: 29
Zmaster

I performed test decodes with other formats to for example using x264, with or with out indexing with no problems.

and no problem with MEGUI 32 xvid

Whimick
Whimick is offline   Reply With Quote
Old 13th October 2010, 17:50   #242  |  Link
zanuda
Registered User
 
zanuda's Avatar
 
Join Date: Aug 2008
Location: Russia
Posts: 17
What it could be. Try to open *.ffindex (vc1 codec) in avs script creator
Quote:
Description:
A problem caused this program to stop interacting with Windows.

Problem signature:
Problem Event Name: AppHangB1
Application Name: MeGUI.exe
Application Version: 0.3.5.15
Application Timestamp: 4c991c71
Hang Signature: 0000
Hang Type: 256
OS Version: 6.1.7600.2.0.0.256.1
Locale ID: 1049
Additional Hang Signature 1: 00000000000000000000000000000000
Additional Hang Signature 2: 0000
Additional Hang Signature 3: 00000000000000000000000000000000
Additional Hang Signature 4: 0000
Additional Hang Signature 5: 00000000000000000000000000000000
Additional Hang Signature 6: 0000
Additional Hang Signature 7: 00000000000000000000000000000000
update: downgrade ffms2 to rev.328 works fine

Last edited by zanuda; 13th October 2010 at 22:34.
zanuda is offline   Reply With Quote
Old 18th October 2010, 16:26   #243  |  Link
fschiefer
Registered User
 
Join Date: Nov 2005
Posts: 6
Quote:
Originally Posted by zanuda View Post
update: downgrade ffms2 to rev.328 works fine
Can you explain to me how to downgrade to rev.328? I have the same problem. THANKS!
fschiefer is offline   Reply With Quote
Old 18th October 2010, 16:34   #244  |  Link
Zathor
Registered User
 
Join Date: Nov 2009
Posts: 2,408
Extract this file http://megui.org/auto/ffms2-r328_x64.zip into your megui\tools\ffms directory replacing all files.

EDIT: by the way with which kind of operation do you have the problem? I can index files (tried avc mkv only) and open them without problem in the avs script creator.
Zathor is offline   Reply With Quote
Old 18th October 2010, 17:38   #245  |  Link
fschiefer
Registered User
 
Join Date: Nov 2005
Posts: 6
Quote:
Originally Posted by Zathor View Post
Extract this file http://megui.org/auto/ffms2-r328_x64.zip into your megui\tools\ffms directory replacing all files.

EDIT: by the way with which kind of operation do you have the problem? I can index files (tried avc mkv only) and open them without problem in the avs script creator.
the problem is when I try to index files with VC1 video. The program hangs up or takes 5 minutes to react. It only happens with VC1 coded video files.

when I extract the files into the ffms directory it does not solve my problem. Before the update to r344 the indexer works flawlessly and fast.
fschiefer is offline   Reply With Quote
Old 18th October 2010, 18:24   #246  |  Link
al-z3ol
Registered User
 
Join Date: Dec 2006
Posts: 2
Thanks but whenever I try it keep telling me this

avisynth script error:
Script error: there is no function named "textsub"

I've put the VSFilter64.dll in C:\Program Files (x86)\AviSynth 2.5\plugins64

but won't work either

What should I do ?
al-z3ol is offline   Reply With Quote
Old 19th October 2010, 00:03   #247  |  Link
Zathor
Registered User
 
Join Date: Nov 2009
Posts: 2,408
Quote:
Originally Posted by fschiefer View Post
the problem is when I try to index files with VC1 video. The program hangs up or takes 5 minutes to react. It only happens with VC1 coded video files.
I do not have this problems while indexing mkv/m2ts vc1 files. Does it crash/hang if opening the file in the file indexer or during index?

Quote:
Originally Posted by al-z3ol View Post
Thanks but whenever I try it keep telling me this

avisynth script error:
Script error: there is no function named "textsub"

I've put the VSFilter64.dll in C:\Program Files (x86)\AviSynth 2.5\plugins64
Post your avs script and delete the vsfilter files in your mentioned directory. The megui used vsfilter.dll works fine for me.
Zathor is offline   Reply With Quote
Old 19th October 2010, 00:10   #248  |  Link
Zathor
Registered User
 
Join Date: Nov 2009
Posts: 2,408
Quote:
Originally Posted by zanuda View Post
What it could be. Try to open *.ffindex (vc1 codec) in avs script creator

update: downgrade ffms2 to rev.328 works fine
Could be this issue:
http://code.google.com/p/ffmpegsourc...il?id=30&can=1
Zathor is offline   Reply With Quote
Old 19th October 2010, 06:02   #249  |  Link
fschiefer
Registered User
 
Join Date: Nov 2005
Posts: 6
Quote:
Originally Posted by Zathor View Post
Does it crash/hang if opening the file in the file indexer or during index?
It crashes/hangs if opening the file.
fschiefer is offline   Reply With Quote
Old 19th October 2010, 09:06   #250  |  Link
Zathor
Registered User
 
Join Date: Nov 2009
Posts: 2,408
In this case the mediainfo.dll is not working for you. Can you please post the mediainfo output of the file your are using and/or a small clip?

Try different mediainfo.dll files (you have to close megui, replace it and restart megui). The recent one in the autoupdate is this file: http://megui.org/auto/mediainfo_0_7_35-4_x64.zip then try this one http://megui.org/auto/mediainfo_0_7_35_x64.zip.
Zathor is offline   Reply With Quote
Old 19th October 2010, 11:13   #251  |  Link
al-z3ol
Registered User
 
Join Date: Dec 2006
Posts: 2
Quote:
Originally Posted by Zathor View Post
Post your avs script and delete the vsfilter files in your mentioned directory. The megui used vsfilter.dll works fine for me.
Code:
AviSource("C:\Users\Moh\Downloads\Zero_Raws_Fullmetal_Alchemist_24_RAW_1280x720_DivX611_120fps.avi")
TextSub("C:\Users\Moh\Desktop\Sub\FMA_-_24.ass")
al-z3ol is offline   Reply With Quote
Old 19th October 2010, 11:36   #252  |  Link
Zathor
Registered User
 
Join Date: Nov 2009
Posts: 2,408
Thanks, but this is not a MeGUI generated avs file. There is a a line like
Code:
LoadPlugin("C:\MeGUI\tools\avisynth_plugin\VSFilter.dll")
missing at the beginning of the script. Of course you have to change the path to your MeGUI directory.
Zathor is offline   Reply With Quote
Old 19th October 2010, 12:48   #253  |  Link
fschiefer
Registered User
 
Join Date: Nov 2005
Posts: 6
Quote:
Originally Posted by Zathor View Post
In this case the mediainfo.dll is not working for you.
Try different mediainfo.dll files (you have to close megui, replace it and restart megui). The recent one in the autoupdate is this file: http://megui.org/auto/mediainfo_0_7_35-4_x64.zip then try this one http://megui.org/auto/mediainfo_0_7_35_x64.zip.
That didnīt work for me. When I try to open .avs file from a VC-1 and ffms2 indexed video the program hangs up and only after waiting 5 minutes or so the video preview pops up and I can continue working.
fschiefer is offline   Reply With Quote
Old 19th October 2010, 13:03   #254  |  Link
Zathor
Registered User
 
Join Date: Nov 2009
Posts: 2,408
We have talked at cross purposes
I was refering to the file open dialogue in the file indexer and you to the file open in the main input tab, correct? In this case the mediainfo file is of course not the problem (please revert it back).

As already requested please provide more details about the kind of your file. Please post a small clip and the mediainfo information.

Please try opening the avs file with another tool like VirtualDub64 and post the avs file. Do you have after indexing and before opening the avs file a [video].ffindex in the same location as your [video] file?
Zathor is offline   Reply With Quote
Old 19th October 2010, 13:26   #255  |  Link
fschiefer
Registered User
 
Join Date: Nov 2005
Posts: 6
Quote:
Originally Posted by Zathor View Post
We have talked at cross purposes
I was refering to the file open dialogue in the file indexer and you to the file open in the main input tab, correct? In this case the mediainfo file is of course not the problem (please revert it back).

As already requested please provide more details about the kind of your file. Please post a small clip and the mediainfo information.

Please try opening the avs file with another tool like VirtualDub64 and post the avs file. Do you have after indexing and before opening the avs file a [video].ffindex in the same location as your [video] file?
OK, here is what mediainfo says:

Format : Matroska
File size : 12.6 GiB
Duration : 1h 47mn
Overall bit rate : 16.7 Mbps
Encoded date : UTC 2010-08-20 12:31:35
Writing application : eac3to
Writing library : Haali DirectShow Matroska Muxer 1.10.175.0

Video
ID : 1
Format : VC-1
Format profile : AP@L3
Codec ID : WVC1
Codec ID/Hint : Microsoft
Duration : 1h 47mn
Bit rate : 16.4 Mbps
Width : 1 920 pixels
Height : 1 080 pixels
Display aspect ratio : 16:9
Frame rate : 23.976 fps
Chroma subsampling : 4:2:0
Bit depth : 8 bits
Scan type : Progressive
Bits/(Pixel*Frame) : 0.330
Stream size : 12.3 GiB (98%)

The .avs file looks like that:
LoadCPlugin("C:\MeGuix64\tools\ffms\ffms2.dll")
FFVideoSource("D:\F1_T2_Video - .mkv")

And yes, there is a .ffindex in the same folder as the video file.

The weird thing is: After auto updating MeGuix64 a few weeks ago all worked fine. I think it was the ffms update.
fschiefer is offline   Reply With Quote
Old 19th October 2010, 18:08   #256  |  Link
zanuda
Registered User
 
zanuda's Avatar
 
Join Date: Aug 2008
Location: Russia
Posts: 17
.mkv problem

i merged h264 stream (mp4) into single .mkv file with mkvmerge (4.3.0) and resulting file shows incorrect video picture during first 5 seconds in mplayer, mpc-hc, vlc.
Source h264 video (.mp4) produce correct picture

MPlayer log

Quote:
C:/Program Files (x86)/MPlayer for Windows/MPlayer.exe -noquiet -nofs -nomouseinput -lavdopts threads=4 -sub-fuzziness 1 -identify -slave -vo direct3d, -ao dsound -nokeepaspect -priority abovenormal -framedrop -autosync 100 -nodr -double -wid 459894 -colorkey 0x020202 -monitorpixelaspect 1 -ass -embeddedfonts -ass-line-spacing 0 -ass-font-scale 1 -ass-styles C:/Program Files (x86)/MPlayer for Windows/styles.ass -fontconfig -font Arial -subfont-autoscale 0 -subfont-osd-scale 20 -subfont-text-scale 20 -subcp ISO-8859-1 -subpos 100 -volume 50 -nocache -osdlevel 0 -vf-add screenshot -slices -af volnorm=1,equalizer=0:0:0:0:0:0:0:0:0:0 -sws 9 D:\1.MKV

MPlayer SVN-r32492-4.2.5 (C) 2000-2010 MPlayer Team
SSE2 supported but disabled
Setting process priority: abovenormal

159 audio & 348 video codecs

Playing D:\1.MKV.
libavformat file format detected.
ID_VIDEO_ID=0
[lavf] stream 0: video (h264), -vid 0
VIDEO: [H264] 720x480 0bpp 24.000 fps 0.0 kbps ( 0.0 kbyte/s)
ID_FILENAME=D:\1.MKV
ID_DEMUXER=lavfpref
ID_VIDEO_FORMAT=H264
ID_VIDEO_BITRATE=0
ID_VIDEO_WIDTH=720
ID_VIDEO_HEIGHT=480
ID_VIDEO_FPS=24.000
ID_VIDEO_ASPECT=1.8125
ID_START_TIME=0.00
ID_LENGTH=1356.31
ID_SEEKABLE=1
ID_CHAPTERS=0
Opening video filter: [ass auto=1]
[ass] auto-open
Opening video filter: [screenshot]
==========================================================================
Opening video decoder: [ffmpeg] FFmpeg's libavcodec codec family
Selected video codec: [ffh264] vfm: ffmpeg (FFmpeg H.264)
==========================================================================
ID_VIDEO_CODEC=ffh264
Audio: no sound
Starting playback...
[h264 @ 01b81570] reference picture missing during reorder
[h264 @ 01b81570] Missing reference picture
[h264 @ 01b81570] reference picture missing during reorder
[h264 @ 01b81570] Missing reference picture
[h264 @ 01b81570] reference picture missing during reorder
[h264 @ 01b81570] Missing reference picture
[h264 @ 01b81570] reference picture missing during reorder
[h264 @ 01b81570] Missing reference picture
[h264 @ 01b81570] reference picture missing during reorder
[h264 @ 01b81570] Missing reference picture
[h264 @ 01b81570] reference picture missing during reorder
[h264 @ 01b81570] Missing reference picture
[matroska,webm @ 01b7ee90] Estimating duration from bitrate, this may be inaccurate
[h264 @ 01122854]reference picture missing during reorder
[h264 @ 01122854]Missing reference picture
[h264 @ 01122854]reference picture missing during reorder
[h264 @ 01122854]Missing reference picture
[h264 @ 01122854]reference picture missing during reorder
[h264 @ 01122854]Missing reference picture
[h264 @ 01122854]reference picture missing during reorder
[h264 @ 01122854]Missing reference picture
[h264 @ 01122854]reference picture missing during reorder
[h264 @ 01122854]Missing reference picture
Movie-Aspect is 1.81:1 - prescaling to correct movie aspect.
ID_VIDEO_ASPECT=1.8132
[h264 @ 01122854]reference picture missing during reorder
[h264 @ 01122854]Missing reference picture
[swscaler @ 0122e414]Lanczos scaler, from yuv420p to rgb24 using MMX2
VO: [direct3d] 720x480 => 870x480 Planar YV12

[h264 @ 01122854]reference picture missing during reorder
[h264 @ 01122854]Missing reference picture

[h264 @ 01122854]reference picture missing during reorder
[h264 @ 01122854]Missing reference picture

ID_VIDEO_TRACK=0

[h264 @ 01122854]reference picture missing during reorder
[h264 @ 01122854]Missing reference picture

[h264 @ 01122854]mmco: unref short failure
Mediainfo

Quote:
General
Complete name : D:\1.mkv
Format : Matroska
File size : 157 MiB
Duration : 22mn 36s
Overall bit rate : 969 Kbps
Encoded date : UTC 2010-10-19 16:14:17
Writing application : mkvmerge v4.3.0 ('Escape from the Island') сборка от Sep 5 2010 10:30:51
Writing library : libebml v1.0.0 + libmatroska v1.0.0

Video
ID : 1
Format : AVC
Format/Info : Advanced Video Codec
Format profile : High@L4.0
Format settings, CABAC : Yes
Format settings, ReFrames : 16 frames
Muxing mode : Container profile=Unknown@4.0
Codec ID : V_MPEG4/ISO/AVC
Duration : 22mn 36s
Bit rate : 950 Kbps
Width : 720 pixels
Height : 480 pixels
Display aspect ratio : 16:9
Frame rate : 23.976 fps
Standard : NTSC
Color space : YUV
Chroma subsampling : 4:2:0
Bit depth : 8 bits
Scan type : Progressive
Bits/(Pixel*Frame) : 0.115
Stream size : 154 MiB (98%)
Part of megui log
Quote:
--[Information] Job commandline: "C:\Program Files\Megui\tools\mkvmerge\mkvmerge.exe" -o "D:\1.mkv" --engage keep_bitstream_ar_info --default-duration 1:24000/1001fps "--compression" "1:none" -d 1 -A -S "D:\1.mp4"
Mediainfo of .mp4

Quote:
General
Complete name : D:\1.mp4
Format : MPEG-4
Format profile : JVT
Codec ID : avc1
File size : 157 MiB
Duration : 22mn 36s
Overall bit rate : 970 Kbps
Encoded date : UTC 2010-10-16 18:43:36
Tagged date : UTC 2010-10-16 18:43:36

Video
ID : 1
Format : AVC
Format/Info : Advanced Video Codec
Format profile : High@L4.0
Format settings, CABAC : Yes
Format settings, ReFrames : 16 frames
Codec ID : avc1
Codec ID/Info : Advanced Video Coding
Duration : 22mn 36s
Bit rate mode : Variable
Bit rate : 968 Kbps
Maximum bit rate : 6 903 Kbps
Width : 720 pixels
Height : 480 pixels
Display aspect ratio : 16:9
Original display aspect ratio : 16:9
Frame rate mode : Constant
Frame rate : 23.976 fps
Standard : NTSC
Color space : YUV
Chroma subsampling : 4:2:0
Bit depth : 8 bits
Scan type : Progressive
Bits/(Pixel*Frame) : 0.117
Stream size : 156 MiB (100%)
Writing library : x264 core 107 r1745 4785e8e
Encoding settings : cabac=1 / ref=16 / deblock=1:1:1 / analyse=0x3:0x133 / me=umh / subme=10 / psy=1 / psy_rd=0.40:0.00 / mixed_ref=1 / me_range=24 / chroma_me=1 / trellis=2 / 8x8dct=1 / cqm=0 / deadzone=21,11 / fast_pskip=1 / chroma_qp_offset=-2 / threads=6 / sliced_threads=0 / nr=0 / decimate=1 / interlaced=0 / constrained_intra=0 / bframes=8 / b_pyramid=2 / b_adapt=2 / b_bias=0 / direct=3 / weightb=1 / open_gop=1 / weightp=2 / keyint=240 / keyint_min=23 / scenecut=40 / intra_refresh=0 / rc_lookahead=60 / rc=crf / mbtree=1 / crf=16.0 / qcomp=0.60 / qpmin=10 / qpmax=51 / qpstep=4 / ip_ratio=1.40 / aq=1:0.60
Encoded date : UTC 2010-10-16 18:43:36
Tagged date : UTC 2010-10-16 19:35:10

Last edited by zanuda; 19th October 2010 at 18:12.
zanuda is offline   Reply With Quote
Old 23rd October 2010, 15:03   #257  |  Link
zmaster
nvidia user
 
Join Date: Sep 2010
Location: Russia, Abakan
Posts: 92
Hi.

I have a problem with the encoder LameMP3. After encoding I get a file that no contains sound, then have an mp3 file consists of silence. This occurs when encoding any source.
I Use version LameMP3 the latest available on the update server MeGUI. (MeGUI x64, core 0.3.5.15, data 0.3.4.1)

Last edited by zmaster; 23rd October 2010 at 15:06.
zmaster is offline   Reply With Quote
Old 24th October 2010, 11:10   #258  |  Link
Zathor
Registered User
 
Join Date: Nov 2009
Posts: 2,408
Quote:
Originally Posted by zmaster View Post
I Use version LameMP3 the latest available on the update server MeGUI. (MeGUI x64, core 0.3.5.15, data 0.3.4.1)
It seems you are using the wrong update server because 0.3.5.23 is the most recent build of MeGUI. Either replace the megui.exe with the one mentioned in the first posting of this thread (this will fix the wrong server, too) or use the development update server http://megui.org/auto/

EDIT: This will very likely not fix you problem with lame because it has not been changed for a long time. Do you have the same problem if using another audio output type?

Last edited by Zathor; 24th October 2010 at 11:14.
Zathor is offline   Reply With Quote
Old 24th October 2010, 12:54   #259  |  Link
DVDBob
Registered User
 
Join Date: May 2010
Posts: 120
MeGUI has only Lame MP3 v3.98.2, but v3.98.4 is out.

Lame MP3 site: http://lame.sourceforge.net/
Download link to x86 and x64 version of Lame MP3 v3.98.4 http://www.free-codecs.com/lame_encoder_download.htm
DVDBob is offline   Reply With Quote
Old 24th October 2010, 14:04   #260  |  Link
zmaster
nvidia user
 
Join Date: Sep 2010
Location: Russia, Abakan
Posts: 92
Quote:
Originally Posted by Zathor View Post
It seems you are using the wrong update server...
I just did not update core and data, but I read the changelog and there were no marked changes regarding this issue. Now specially made update, the problem remained.
Quote:
Originally Posted by Zathor View Post
Do you have the same problem if using another audio output type?
Checked the better. The problem only when using LameMP3 and only when involved "SampleRate". For example: LameMP3+SampleRate: Change to.../Speed-Up/Slow-down = silence. LameMP3+SampleRate: Keep Original = correct result. Other encoder always work.

DVDBob,
Thanks for the idea, I'll try other versions LameMP3.
zmaster is offline   Reply With Quote
Reply

Thread Tools Search this Thread
Search this Thread:

Advanced Search
Display Modes

Posting Rules
You may not post new threads
You may not post replies
You may not post attachments
You may not edit your posts

BB code is On
Smilies are On
[IMG] code is On
HTML code is Off

Forum Jump


All times are GMT +1. The time now is 17:01.


Powered by vBulletin® Version 3.8.11
Copyright ©2000 - 2020, vBulletin Solutions Inc.