Welcome to Doom9's Forum, THE in-place to be for everyone interested in DVD conversion.

Before you start posting please read the forum rules. By posting to this forum you agree to abide by the rules.

 

Go Back   Doom9's Forum > Video Encoding > MPEG-4 Encoder GUIs

Reply
 
Thread Tools Search this Thread Display Modes
Old 19th August 2016, 16:50   #14501  |  Link
Atak_Snajpera
RipBot264 author
 
Atak_Snajpera's Avatar
 
Join Date: May 2006
Location: Poland
Posts: 7,092
show me content of Blu-Ray_structure_info.txt and Blu-Ray_title1_info.txt
Atak_Snajpera is offline   Reply With Quote
Old 20th August 2016, 04:12   #14502  |  Link
Grayfox
Registered User
 
Join Date: Jun 2016
Posts: 8
Blu-Ray_structure_info
Code:
eac3to v3.31
command line: "I:\RipBot264v1.19.3\Tools\eac3to\eac3to.exe"  "E:\" -log="I:\Temp\RipBot264temp\job2\Blu-Ray_structure_info.txt"
------------------------------------------------------------------------------
1) 00001.mpls, 00001.m2ts+00002.m2ts, 2:23:11
   - Chapters, 16 chapters
   - h264/AVC, 1080p24 /1.001 (16:9)
   - RAW/PCM, English, multi-channel, 48kHz
   - AC3, English, multi-channel, 48kHz
   - DTS, French, multi-channel, 48kHz
   - AC3, French, multi-channel, 48kHz
   - DTS, Spanish, multi-channel, 48kHz
   - AC3, Spanish, multi-channel, 48kHz

2) 00020.mpls, 00021.m2ts, 0:51:49
   - Chapters, 43 chapters
   - h264/AVC, 1080i60 /1.001 (16:9)
   - AC3, English, multi-channel, 48kHz
   - AC3, French, stereo, 48kHz
   - AC3, Spanish, stereo, 48kHz
Blu-Ray_title1_info
Code:
eac3to v3.31
command line: "I:\RipBot264v1.19.3\Tools\eac3to\eac3to.exe"  "E:\" 1) -log="I:\Temp\RipBot264temp\job2\Blu-Ray_title1_info.txt"
------------------------------------------------------------------------------
The program type (4352) changes from video to audio.  <ERROR>
The format of the source file could not be detected.  <ERROR>
Attached Files
File Type: txt Blu-Ray_structure_info.txt (796 Bytes, 5 views)
File Type: txt Blu-Ray_title1_info.txt (349 Bytes, 2 views)
Grayfox is offline   Reply With Quote
Old 21st August 2016, 12:43   #14503  |  Link
fatpizza
Registered User
 
Join Date: Nov 2015
Posts: 16
Quote:
Originally Posted by FuzzyNutz View Post
I'm getting the error "avs2avi.exe has stopped working" with VC-1 sources.

I've uninstalled and reinstalled ffdshow, AviSynth and Haali Media Splitter with a reboot in between and reinstalled Ripbot264.

ffdshow video decoder is set to wmv9 for VC-1.

I'm running Windows 10 Pro 64bit with Windows Media Player 12.

Can anyone help? Thanks.
I always have those issues with VC1 unless I set the decoder to intel quicksync in ffdshow. Solves all my problems.
fatpizza is offline   Reply With Quote
Old 21st August 2016, 13:04   #14504  |  Link
wraith
Registered User
 
Join Date: Aug 2016
Location: Australia
Posts: 6
Error: The file 'D:\Temp\RipBot264temp\video.265' could not be opened for reading: op

Hi All. Noob to Ripbot, trying to take advantage of the Distributed Encoding feature.
So far I’ve been unable to get an encode to continue past the window with the text at the bottom declaring “Please Wait… Copying tools to shared folder…” Shortly after this window appears, it drops back to the main window. The last line in the log file says:
Code:
Error: The file 'D:\Temp\RipBot264temp\video.265' could not be opened for reading: open file error.
I’ve searched the forum and google and have come across a couple posts that raise the same issue with the video.264 file. Taking into account the RipBot264 Distributed Encoding Tutorial and the few posts I’ve found, I’ve:
• Setup RipBot264 to run as Administrator
• Set the necessary flags in RipBot264.ini
• Set Temp to D:\TEMP [only folder designation that seems to work]
• Shared the D:\TEMP\RIPBOT264TEMP directory and confirmed can be accessed from other Server computers on the same network
Despite the above, I still get the error.
Greatly appreciate any assistance on resolving this
__________________
OS: Windows 7 SP1 64-bit
NETWORK: Windows
HARDWARE: Intel i7-950; 6.0Gb RAM
SOFTWARE: RipBot v1.19.4; AVISynth v2.6.0.6; FFDShow v1.3.4532.0; Haali Media Splitter v1.13.138.14; Java v8 Update 101
wraith is offline   Reply With Quote
Old 21st August 2016, 17:53   #14505  |  Link
FuzzyNutz
Registered User
 
Join Date: Jun 2016
Location: Canada
Posts: 96
Quote:
Originally Posted by fatpizza View Post
I always have those issues with VC1 unless I set the decoder to intel quicksync in ffdshow. Solves all my problems.
How? My VC-1 decoder choices for ffdshow are 'libavcodec' or 'wmv9'.
FuzzyNutz is offline   Reply With Quote
Old 21st August 2016, 18:40   #14506  |  Link
Atak_Snajpera
RipBot264 author
 
Atak_Snajpera's Avatar
 
Join Date: May 2006
Location: Poland
Posts: 7,092
Quote:
Originally Posted by wraith View Post
Hi All. Noob to Ripbot, trying to take advantage of the Distributed Encoding feature.
So far I’ve been unable to get an encode to continue past the window with the text at the bottom declaring “Please Wait… Copying tools to shared folder…” Shortly after this window appears, it drops back to the main window. The last line in the log file says:
Code:
Error: The file 'D:\Temp\RipBot264temp\video.265' could not be opened for reading: open file error.
I’ve searched the forum and google and have come across a couple posts that raise the same issue with the video.264 file. Taking into account the RipBot264 Distributed Encoding Tutorial and the few posts I’ve found, I’ve:
• Setup RipBot264 to run as Administrator
• Set the necessary flags in RipBot264.ini
• Set Temp to D:\TEMP [only folder designation that seems to work]
• Shared the D:\TEMP\RIPBOT264TEMP directory and confirmed can be accessed from other Server computers on the same network
Despite the above, I still get the error.
Greatly appreciate any assistance on resolving this
Record your desktop with fraps or similar software and upload on youtube or somewhere. This will help me to understand what is happening on your pc.
Atak_Snajpera is offline   Reply With Quote
Old 21st August 2016, 18:43   #14507  |  Link
Atak_Snajpera
RipBot264 author
 
Atak_Snajpera's Avatar
 
Join Date: May 2006
Location: Poland
Posts: 7,092
Quote:
Originally Posted by Grayfox View Post
Blu-Ray_structure_info
Code:
eac3to v3.31
command line: "I:\RipBot264v1.19.3\Tools\eac3to\eac3to.exe"  "E:\" -log="I:\Temp\RipBot264temp\job2\Blu-Ray_structure_info.txt"
------------------------------------------------------------------------------
1) 00001.mpls, 00001.m2ts+00002.m2ts, 2:23:11
   - Chapters, 16 chapters
   - h264/AVC, 1080p24 /1.001 (16:9)
   - RAW/PCM, English, multi-channel, 48kHz
   - AC3, English, multi-channel, 48kHz
   - DTS, French, multi-channel, 48kHz
   - AC3, French, multi-channel, 48kHz
   - DTS, Spanish, multi-channel, 48kHz
   - AC3, Spanish, multi-channel, 48kHz

2) 00020.mpls, 00021.m2ts, 0:51:49
   - Chapters, 43 chapters
   - h264/AVC, 1080i60 /1.001 (16:9)
   - AC3, English, multi-channel, 48kHz
   - AC3, French, stereo, 48kHz
   - AC3, Spanish, stereo, 48kHz
Blu-Ray_title1_info
Code:
eac3to v3.31
command line: "I:\RipBot264v1.19.3\Tools\eac3to\eac3to.exe"  "E:\" 1) -log="I:\Temp\RipBot264temp\job2\Blu-Ray_title1_info.txt"
------------------------------------------------------------------------------
The program type (4352) changes from video to audio.  <ERROR>
The format of the source file could not be detected.  <ERROR>
Are you sure that your movie has been correctly decrypted? Can you play that playlist 00001 in MPC-HC?
Can you also show me mediainfo reports of 00001.m2ts and 00002.m2ts ?
Atak_Snajpera is offline   Reply With Quote
Old 21st August 2016, 23:19   #14508  |  Link
FuzzyNutz
Registered User
 
Join Date: Jun 2016
Location: Canada
Posts: 96
VC-1 Encoding Resolved

Quote:
Originally Posted by fatpizza View Post
I always have those issues with VC1 unless I set the decoder to intel quicksync in ffdshow. Solves all my problems.
I reinstalled ffdshow using a modified version that allowed me to pick Intel's QuickSync for VC-1 decoding and I enabled my CPU's integrated graphics via BIOS configuration. VC-1 encoding is now working. Thank you, fatpizza.

It seems each time I open Ripbot264, the ffdshow encoder for VC-1 changes back to 'wmv9'. I have to change it to QuickSync after opening Ripbot264 when dealing with VC-1.
FuzzyNutz is offline   Reply With Quote
Old 22nd August 2016, 00:13   #14509  |  Link
fatpizza
Registered User
 
Join Date: Nov 2015
Posts: 16
Quote:
Originally Posted by FuzzyNutz View Post
I reinstalled ffdshow using a modified version that allowed me to pick Intel's QuickSync for VC-1 decoding and I enabled my CPU's integrated graphics via BIOS configuration. VC-1 encoding is now working. Thank you, fatpizza.

It seems each time I open Ripbot264, the ffdshow encoder for VC-1 changes back to 'wmv9'. I have to change it to QuickSync after opening Ripbot264 when dealing with VC-1.
I have to do it every time I reboot which is annoying. But at least it works.
fatpizza is offline   Reply With Quote
Old 22nd August 2016, 00:37   #14510  |  Link
FuzzyNutz
Registered User
 
Join Date: Jun 2016
Location: Canada
Posts: 96
Quote:
Originally Posted by fatpizza View Post
I have to do it every time I reboot which is annoying. But at least it works.
Thanks again.
FuzzyNutz is offline   Reply With Quote
Old 22nd August 2016, 10:49   #14511  |  Link
Grayfox
Registered User
 
Join Date: Jun 2016
Posts: 8
Quote:
Originally Posted by Atak_Snajpera View Post
Are you sure that your movie has been correctly decrypted? Can you play that playlist 00001 in MPC-HC?
Can you also show me mediainfo reports of 00001.m2ts and 00002.m2ts ?
Movie plays fine when decrypted when double clicking on index.bdmv or double clicking on 00001.m2ts , I decrypted it it twice just in case.

00001.m2ts media info
Code:
General
ID                          : 0 (0x0)
Complete name               : E:\BDMV\STREAM\00001.m2ts
CompleteName_Last           : E:\BDMV\STREAM\00050.m2ts
Format                      : BDAV
Format/Info                 : Blu-ray Video
File size                   : 40.8 GiB
Duration                    : 3 s 968 ms
Overall bit rate mode       : Variable
Overall bit rate            : 88.3 Gb/s
Maximum Overall bit rate    : 48.0 Mb/s

Video
ID                          : 4113 (0x1011)
Menu ID                     : 1 (0x1)
Format                      : AVC
Format/Info                 : Advanced Video Codec
Format profile              : High@L4.1
Format settings, CABAC      : Yes
Format settings, ReFrames   : 3 frames
Codec ID                    : 27
Duration                    : 4 s 4 ms
Bit rate                    : 84.8 Gb/s
Width                       : 1 920 pixels
Height                      : 1 080 pixels
Display aspect ratio        : 16:9
Frame rate                  : 23.976 (24000/1001) FPS
Color space                 : YUV
Chroma subsampling          : 4:2:0
Bit depth                   : 8 bits
Scan type                   : Progressive
Bits/(Pixel*Frame)          : 1704.834
Stream size                 : 39.5 GiB (97%)

Audio #1
ID                          : 4352 (0x1100)
Menu ID                     : 1 (0x1)
Format                      : PCM
Format settings, Endianness : Big
Format settings, Sign       : Signed
Muxing mode                 : Blu-ray
Codec ID                    : 128
Duration                    : 3 s 968 ms
Bit rate mode               : Constant
Bit rate                    : 4 608 kb/s
Channel(s)                  : 6 channels
Channel positions           : Front: L C R, Side: L R, LFE
Sampling rate               : 48.0 kHz
Bit depth                   : 16 bits
Delay relative to video     : -1 ms
Stream size                 : 2.18 MiB (0%)

Audio #2
ID                          : 4353 (0x1101)
Menu ID                     : 1 (0x1)
Format                      : AC-3
Format/Info                 : Audio Coding 3
Mode extension              : CM (complete main)
Format settings, Endianness : Big
Codec ID                    : 129
Duration                    : 3 s 968 ms
Bit rate mode               : Constant
Bit rate                    : 640 kb/s
Channel(s)                  : 6 channels
Channel positions           : Front: L C R, Side: L R, LFE
Sampling rate               : 48.0 kHz
Frame rate                  : 31.250 FPS (1536 spf)
Compression mode            : Lossy
Delay relative to video     : -9 ms
Stream size                 : 310 KiB (0%)

Audio #3
ID                          : 4354 (0x1102)
Menu ID                     : 1 (0x1)
Format                      : DTS
Format/Info                 : Digital Theater Systems
Format profile              : ES Matrix / Core
Mode                        : 16
Format settings, Endianness : Big
Codec ID                    : 130
Duration                    : 3 s 968 ms
Bit rate mode               : Constant
Bit rate                    : 1 509 kb/s
Channel(s)                  : 7 channels / 6 channels
Channel positions           : Front: L C R, Side: L R, Back: C, LFE / Front: L C R, Side: L R, LFE
Sampling rate               : 48.0 kHz
Frame rate                  : 93.750 FPS (512 spf)
Bit depth                   : 24 bits
Compression mode            : Lossy
Delay relative to video     : -9 ms
Stream size                 : 731 KiB (0%)

Audio #4
ID                          : 4355 (0x1103)
Menu ID                     : 1 (0x1)
Format                      : AC-3
Format/Info                 : Audio Coding 3
Mode extension              : CM (complete main)
Format settings, Endianness : Big
Codec ID                    : 129
Duration                    : 3 s 968 ms
Bit rate mode               : Constant
Bit rate                    : 640 kb/s
Channel(s)                  : 6 channels
Channel positions           : Front: L C R, Side: L R, LFE
Sampling rate               : 48.0 kHz
Frame rate                  : 31.250 FPS (1536 spf)
Compression mode            : Lossy
Delay relative to video     : -9 ms
Stream size                 : 310 KiB (0%)

Audio #5
ID                          : 4356 (0x1104)
Menu ID                     : 1 (0x1)
Format                      : DTS
Format/Info                 : Digital Theater Systems
Format profile              : ES Matrix / Core
Mode                        : 16
Format settings, Endianness : Big
Codec ID                    : 130
Duration                    : 3 s 968 ms
Bit rate mode               : Constant
Bit rate                    : 1 509 kb/s
Channel(s)                  : 7 channels / 6 channels
Channel positions           : Front: L C R, Side: L R, Back: C, LFE / Front: L C R, Side: L R, LFE
Sampling rate               : 48.0 kHz
Frame rate                  : 93.750 FPS (512 spf)
Bit depth                   : 24 bits
Compression mode            : Lossy
Delay relative to video     : -9 ms
Stream size                 : 731 KiB (0%)

Audio #6
ID                          : 4357 (0x1105)
Menu ID                     : 1 (0x1)
Format                      : AC-3
Format/Info                 : Audio Coding 3
Mode extension              : CM (complete main)
Format settings, Endianness : Big
Codec ID                    : 129
Duration                    : 3 s 968 ms
Bit rate mode               : Constant
Bit rate                    : 640 kb/s
Channel(s)                  : 6 channels
Channel positions           : Front: L C R, Side: L R, LFE
Sampling rate               : 48.0 kHz
Frame rate                  : 31.250 FPS (1536 spf)
Compression mode            : Lossy
Delay relative to video     : -9 ms
Stream size                 : 310 KiB (0%)

Text #1
ID                          : 4608 (0x1200)
Menu ID                     : 1 (0x1)
Format                      : PGS
Codec ID                    : 144

Text #2
ID                          : 4609 (0x1201)
Menu ID                     : 1 (0x1)
Format                      : PGS
Codec ID                    : 144

Text #3
ID                          : 4610 (0x1202)
Menu ID                     : 1 (0x1)
Format                      : PGS
Codec ID                    : 144
Delay relative to video     : 8 s 342 ms

Text #4
ID                          : 4611 (0x1203)
Menu ID                     : 1 (0x1)
Format                      : PGS
Codec ID                    : 144
Delay relative to video     : 8 s 342 ms

Text #5
ID                          : 4612 (0x1204)
Menu ID                     : 1 (0x1)
Format                      : PGS
Codec ID                    : 144

Text #6
ID                          : 4613 (0x1205)
Menu ID                     : 1 (0x1)
Format                      : PGS
Codec ID                    : 144

Text #7
ID                          : 4614 (0x1206)
Menu ID                     : 1 (0x1)
Format                      : PGS
Codec ID                    : 144

Text #8
ID                          : 4615 (0x1207)
Menu ID                     : 1 (0x1)
Format                      : PGS
Codec ID                    : 144
Delay relative to video     : 9 s 801 ms

Text #9
ID                          : 4616 (0x1208)
Menu ID                     : 1 (0x1)
Format                      : PGS
Codec ID                    : 144
Delay relative to video     : 8 s 342 ms

Text #10
ID                          : 4617 (0x1209)
Menu ID                     : 1 (0x1)
Format                      : PGS
Codec ID                    : 144

Text #11
ID                          : 4618 (0x120A)
Menu ID                     : 1 (0x1)
Format                      : PGS
Codec ID                    : 144
Delay relative to video     : 8 s 342 ms

Text #12
ID                          : 4619 (0x120B)
Menu ID                     : 1 (0x1)
Format                      : PGS
Codec ID                    : 144
Delay relative to video     : 8 s 342 ms

Text #13
ID                          : 4620 (0x120C)
Menu ID                     : 1 (0x1)
Format                      : PGS
Codec ID                    : 144

Text #14
ID                          : 4621 (0x120D)
Menu ID                     : 1 (0x1)
Format                      : PGS
Codec ID                    : 144

Text #15
ID                          : 4622 (0x120E)
Menu ID                     : 1 (0x1)
Format                      : PGS
Codec ID                    : 144
Attached Files
File Type: txt 00001.m2ts.txt (16.8 KB, 2 views)
File Type: txt 00002.m2ts.txt (15.5 KB, 2 views)
Grayfox is offline   Reply With Quote
Old 22nd August 2016, 10:50   #14512  |  Link
Grayfox
Registered User
 
Join Date: Jun 2016
Posts: 8
Quote:
Originally Posted by Atak_Snajpera View Post
Are you sure that your movie has been correctly decrypted? Can you play that playlist 00001 in MPC-HC?
Can you also show me mediainfo reports of 00001.m2ts and 00002.m2ts ?
Hit the 16,000 char limit so split post into 2.

00002.m2ts media info
Code:
General
ID                          : 0 (0x0)
Complete name               : E:\BDMV\STREAM\00002.m2ts
CompleteName_Last           : E:\BDMV\STREAM\00050.m2ts
Format                      : BDAV
Format/Info                 : Blu-ray Video
File size                   : 8.93 GiB
Duration                    : 3 s 968 ms
Overall bit rate mode       : Variable
Overall bit rate            : 19.3 Gb/s
Maximum Overall bit rate    : 48.0 Mb/s

Video
ID                          : 4113 (0x1011)
Menu ID                     : 1 (0x1)
Format                      : AVC
Format/Info                 : Advanced Video Codec
Format profile              : High@L4.1
Format settings, CABAC      : Yes
Format settings, ReFrames   : 2 frames
Codec ID                    : 27
Duration                    : 4 s 54 ms
Bit rate                    : 18.6 Gb/s
Width                       : 1 920 pixels
Height                      : 1 080 pixels
Display aspect ratio        : 16:9
Frame rate                  : 23.976 (24000/1001) FPS
Color space                 : YUV
Chroma subsampling          : 4:2:0
Bit depth                   : 8 bits
Scan type                   : Progressive
Bits/(Pixel*Frame)          : 373.426
Stream size                 : 8.74 GiB (98%)

Audio #1
ID                          : 4352 (0x1100)
Menu ID                     : 1 (0x1)
Format                      : AC-3
Format/Info                 : Audio Coding 3
Mode extension              : CM (complete main)
Format settings, Endianness : Big
Codec ID                    : 129
Duration                    : 3 s 968 ms
Bit rate mode               : Constant
Bit rate                    : 640 kb/s
Channel(s)                  : 6 channels
Channel positions           : Front: L C R, Side: L R, LFE
Sampling rate               : 48.0 kHz
Frame rate                  : 31.250 FPS (1536 spf)
Compression mode            : Lossy
Stream size                 : 310 KiB (0%)

Audio #2
ID                          : 4353 (0x1101)
Menu ID                     : 1 (0x1)
Format                      : AC-3
Format/Info                 : Audio Coding 3
Mode extension              : CM (complete main)
Format settings, Endianness : Big
Codec ID                    : 129
Duration                    : 3 s 968 ms
Bit rate mode               : Constant
Bit rate                    : 640 kb/s
Channel(s)                  : 6 channels
Channel positions           : Front: L C R, Side: L R, LFE
Sampling rate               : 48.0 kHz
Frame rate                  : 31.250 FPS (1536 spf)
Compression mode            : Lossy
Stream size                 : 310 KiB (0%)

Audio #3
ID                          : 4354 (0x1102)
Menu ID                     : 1 (0x1)
Format                      : AC-3
Format/Info                 : Audio Coding 3
Mode extension              : CM (complete main)
Format settings, Endianness : Big
Codec ID                    : 129
Duration                    : 3 s 968 ms
Bit rate mode               : Constant
Bit rate                    : 640 kb/s
Channel(s)                  : 6 channels
Channel positions           : Front: L C R, Side: L R, LFE
Sampling rate               : 48.0 kHz
Frame rate                  : 31.250 FPS (1536 spf)
Compression mode            : Lossy
Stream size                 : 310 KiB (0%)

Audio #4
ID                          : 4355 (0x1103)
Menu ID                     : 1 (0x1)
Format                      : AC-3
Format/Info                 : Audio Coding 3
Mode extension              : CM (complete main)
Format settings, Endianness : Big
Codec ID                    : 129
Duration                    : 3 s 968 ms
Bit rate mode               : Constant
Bit rate                    : 640 kb/s
Channel(s)                  : 6 channels
Channel positions           : Front: L C R, Side: L R, LFE
Sampling rate               : 48.0 kHz
Frame rate                  : 31.250 FPS (1536 spf)
Compression mode            : Lossy
Stream size                 : 310 KiB (0%)

Audio #5
ID                          : 4356 (0x1104)
Menu ID                     : 1 (0x1)
Format                      : AC-3
Format/Info                 : Audio Coding 3
Mode extension              : CM (complete main)
Format settings, Endianness : Big
Codec ID                    : 129
Duration                    : 3 s 968 ms
Bit rate mode               : Constant
Bit rate                    : 640 kb/s
Channel(s)                  : 6 channels
Channel positions           : Front: L C R, Side: L R, LFE
Sampling rate               : 48.0 kHz
Frame rate                  : 31.250 FPS (1536 spf)
Compression mode            : Lossy
Stream size                 : 310 KiB (0%)

Audio #6
ID                          : 4357 (0x1105)
Menu ID                     : 1 (0x1)
Format                      : AC-3
Format/Info                 : Audio Coding 3
Mode extension              : CM (complete main)
Format settings, Endianness : Big
Codec ID                    : 129
Duration                    : 3 s 968 ms
Bit rate mode               : Constant
Bit rate                    : 640 kb/s
Channel(s)                  : 6 channels
Channel positions           : Front: L C R, Side: L R, LFE
Sampling rate               : 48.0 kHz
Frame rate                  : 31.250 FPS (1536 spf)
Compression mode            : Lossy
Stream size                 : 310 KiB (0%)

Text #1
ID                          : 4608 (0x1200)
Menu ID                     : 1 (0x1)
Format                      : PGS
Codec ID                    : 144

Text #2
ID                          : 4609 (0x1201)
Menu ID                     : 1 (0x1)
Format                      : PGS
Codec ID                    : 144

Text #3
ID                          : 4610 (0x1202)
Menu ID                     : 1 (0x1)
Format                      : PGS
Codec ID                    : 144

Text #4
ID                          : 4611 (0x1203)
Menu ID                     : 1 (0x1)
Format                      : PGS
Codec ID                    : 144

Text #5
ID                          : 4612 (0x1204)
Menu ID                     : 1 (0x1)
Format                      : PGS
Codec ID                    : 144

Text #6
ID                          : 4613 (0x1205)
Menu ID                     : 1 (0x1)
Format                      : PGS
Codec ID                    : 144

Text #7
ID                          : 4614 (0x1206)
Menu ID                     : 1 (0x1)
Format                      : PGS
Codec ID                    : 144

Text #8
ID                          : 4615 (0x1207)
Menu ID                     : 1 (0x1)
Format                      : PGS
Codec ID                    : 144

Text #9
ID                          : 4616 (0x1208)
Menu ID                     : 1 (0x1)
Format                      : PGS
Codec ID                    : 144

Text #10
ID                          : 4617 (0x1209)
Menu ID                     : 1 (0x1)
Format                      : PGS
Codec ID                    : 144

Text #11
ID                          : 4618 (0x120A)
Menu ID                     : 1 (0x1)
Format                      : PGS
Codec ID                    : 144

Text #12
ID                          : 4619 (0x120B)
Menu ID                     : 1 (0x1)
Format                      : PGS
Codec ID                    : 144

Text #13
ID                          : 4620 (0x120C)
Menu ID                     : 1 (0x1)
Format                      : PGS
Codec ID                    : 144

Text #14
ID                          : 4621 (0x120D)
Menu ID                     : 1 (0x1)
Format                      : PGS
Codec ID                    : 144

Text #15
ID                          : 4622 (0x120E)
Menu ID                     : 1 (0x1)
Format                      : PGS
Codec ID                    : 144
Grayfox is offline   Reply With Quote
Old 22nd August 2016, 13:16   #14513  |  Link
Atak_Snajpera
RipBot264 author
 
Atak_Snajpera's Avatar
 
Join Date: May 2006
Location: Poland
Posts: 7,092
@Grafox
This is what I suspected.
Audio 1 in first file is PCM while in second file is AC-3.

I'm afraid you will have to manually separate those streams in some Eac3toGUI or in MKVToolnix.
Atak_Snajpera is offline   Reply With Quote
Old 22nd August 2016, 14:08   #14514  |  Link
wraith
Registered User
 
Join Date: Aug 2016
Location: Australia
Posts: 6
Error: The file 'D:\Temp\RipBot264temp\video.265' could not be opened for reading: op

Hi. I've saved a couple videos [due to Fraps 30sec limitation] to here: https://1drv.ms/f/s!Aszu1bOAzXDajgMAgzV9w6eDDWjK.

The first video is the initial setup [copy video to temp directory etc]. The second video is copy the shared files etc. It "crashes out" just after the video stops
__________________
OS: Windows 7 SP1 64-bit
NETWORK: Windows
HARDWARE: Intel i7-950; 6.0Gb RAM
SOFTWARE: RipBot v1.19.4; AVISynth v2.6.0.6; FFDShow v1.3.4532.0; Haali Media Splitter v1.13.138.14; Java v8 Update 101
wraith is offline   Reply With Quote
Old 22nd August 2016, 16:49   #14515  |  Link
Atak_Snajpera
RipBot264 author
 
Atak_Snajpera's Avatar
 
Join Date: May 2006
Location: Poland
Posts: 7,092
Quote:
Originally Posted by wraith View Post
Hi. I've saved a couple videos [due to Fraps 30sec limitation] to here: https://1drv.ms/f/s!Aszu1bOAzXDajgMAgzV9w6eDDWjK.

The first video is the initial setup [copy video to temp directory etc]. The second video is copy the shared files etc. It "crashes out" just after the video stops
Do not press manually ON button. (I'm even surprised that you are actually able to do that because on my machine it is impossible). Encoding client will connect with specified servers automatically.

Last edited by Atak_Snajpera; 22nd August 2016 at 16:51.
Atak_Snajpera is offline   Reply With Quote
Old 23rd August 2016, 00:02   #14516  |  Link
wraith
Registered User
 
Join Date: Aug 2016
Location: Australia
Posts: 6
Error: The file 'D:\Temp\RipBot264temp\video.265' could not be opened for reading:

Quote:
Originally Posted by Atak_Snajpera View Post
Do not press manually ON button. (I'm even surprised that you are actually able to do that because on my machine it is impossible). Encoding client will connect with specified servers automatically.
Noted
FYI - the error occurs regardless whether I manually click the 'ON' button or not
__________________
OS: Windows 7 SP1 64-bit
NETWORK: Windows
HARDWARE: Intel i7-950; 6.0Gb RAM
SOFTWARE: RipBot v1.19.4; AVISynth v2.6.0.6; FFDShow v1.3.4532.0; Haali Media Splitter v1.13.138.14; Java v8 Update 101
wraith is offline   Reply With Quote
Old 23rd August 2016, 13:40   #14517  |  Link
Atak_Snajpera
RipBot264 author
 
Atak_Snajpera's Avatar
 
Join Date: May 2006
Location: Poland
Posts: 7,092
Quote:
Originally Posted by wraith View Post
Noted
FYI - the error occurs regardless whether I manually click the 'ON' button or not
Use this version of EncodingClient.exe and show me error message in EncodingClient_crash_message.txt
Atak_Snajpera is offline   Reply With Quote
Old 24th August 2016, 13:19   #14518  |  Link
wraith
Registered User
 
Join Date: Aug 2016
Location: Australia
Posts: 6
Quote:
Originally Posted by Atak_Snajpera View Post
Use this version of EncodingClient.exe and show me error message in EncodingClient_crash_message.txt
Downloaded the above file into the RipBot directory. The program continues to crashes out. No EncodingClient_crash_message.txt can be found in either the job1 folder or the Ripbot folder. Should I be looking somewhere else?

If it helps, the contents of job1_log.txt follows:

Code:
D:\>"D:\Ripbot\EncodingClient.exe" "D:\Temp\RipBot264temp\job1\job1_EncodingClient.meta" 

D:\>"D:\Ripbot\tools\mkvtoolnix\mkvmerge.exe" -o "D:\Trial.mkv" --compression 0:none --title "Trial" --default-duration 0:24000/1001fps  "D:\Temp\RipBot264temp\video.265" --compression 0:none --language 0:eng --sync 0:0 "D:\Temp\RipBot264temp\job1\1_audio_English.ac3"  --chapters "D:\Temp\RipBot264temp\job1\chapters.txt" 
mkvmerge v9.3.1 ('Mask Machine') 32bit
Error: The file 'D:\Temp\RipBot264temp\video.265' could not be opened for reading: open file error.
-------------------------
 
Elapsed Time: 00h:00m:30s
Incidentally, the first file I tried was a small 2Gb H265 video. I ripped a small 300Mb+ file using MakeMKV and tried that. Still the same issue.
__________________
OS: Windows 7 SP1 64-bit
NETWORK: Windows
HARDWARE: Intel i7-950; 6.0Gb RAM
SOFTWARE: RipBot v1.19.4; AVISynth v2.6.0.6; FFDShow v1.3.4532.0; Haali Media Splitter v1.13.138.14; Java v8 Update 101
wraith is offline   Reply With Quote
Old 25th August 2016, 18:26   #14519  |  Link
stasi
Registered User
 
stasi's Avatar
 
Join Date: Nov 2009
Location: Germany
Posts: 57
Hey Atak.
Drag and Drop into RipBot window would be nice. Any plans for that?
stasi is offline   Reply With Quote
Old 25th August 2016, 23:04   #14520  |  Link
wraith
Registered User
 
Join Date: Aug 2016
Location: Australia
Posts: 6
Quote:
Originally Posted by Atak_Snajpera View Post
Use this version of EncodingClient.exe and show me error message in EncodingClient_crash_message.txt
Hi Atak,
Tried the EncodingClient provided. Still crashed and no .txt file was created. Not that I could find in the job1 or Ripbot folder.

I created a more detailed reply but this has not made it to the forum, for some reason. I can only assume it's been flagged for review [I tried to re-create the post, via copy and paste, and I was informed it was a duplicate]
__________________
OS: Windows 7 SP1 64-bit
NETWORK: Windows
HARDWARE: Intel i7-950; 6.0Gb RAM
SOFTWARE: RipBot v1.19.4; AVISynth v2.6.0.6; FFDShow v1.3.4532.0; Haali Media Splitter v1.13.138.14; Java v8 Update 101
wraith is offline   Reply With Quote
Reply

Tags
264, 265, appletv, avchd, bluray, gui, iphone, ipod, ps3, psp, ripbot264, x264 2-pass, x264 gui, x264_64, x265, xbox360

Thread Tools Search this Thread
Search this Thread:

Advanced Search
Display Modes

Posting Rules
You may not post new threads
You may not post replies
You may not post attachments
You may not edit your posts

BB code is On
Smilies are On
[IMG] code is On
HTML code is Off

Forum Jump


All times are GMT +1. The time now is 23:09.


Powered by vBulletin® Version 3.8.11
Copyright ©2000 - 2019, vBulletin Solutions Inc.