Welcome to Doom9's Forum, THE in-place to be for everyone interested in DVD conversion.

Before you start posting please read the forum rules. By posting to this forum you agree to abide by the rules.

 

Go Back   Doom9's Forum > (HD) DVD, Blu-ray & (S)VCD > One click suites for DVD backup and DVD creation

Reply
 
Thread Tools Search this Thread Display Modes
Old 19th February 2020, 23:40   #3321  |  Link
manolito
Registered User
 
manolito's Avatar
 
Join Date: Sep 2003
Location: Berlin, Germany
Posts: 2,735
Sure it can...
Have a look here:
https://forum.doom9.org/showthread.p...12#post1879712
manolito is offline   Reply With Quote
Old 20th February 2020, 12:54   #3322  |  Link
Mike-uk
Registered User
 
Join Date: Jun 2018
Location: Dorset
Posts: 87
Quote:
Originally Posted by manolito View Post
ah ok thanks I kinda glossed over that at the time , ill have a play and see what the results are

Thanks

Mike
Mike-uk is offline   Reply With Quote
Old 21st February 2020, 07:58   #3323  |  Link
dr_ml422
Registered User
 
Join Date: Feb 2019
Posts: 72
@manolito Wow! That 2 Pass with HCencVBR you suggested is right on the money! I knew that something had to give because when I use DVD-RB Pro, it uses the HCenc and the results are immaculate. Thanks again. I'll maybe take a look at that Tiny player just for kicks. For the preview to work natively from the app, ffdshow has to be installed, otherwise you have to set it to use an external player.
dr_ml422 is offline   Reply With Quote
Old 15th March 2020, 08:41   #3324  |  Link
mayasl
Registered User
 
Join Date: Oct 2013
Posts: 1
AVStoDVD ver: 2.8.8
AviSynth: 2.6

Please assist me to create a DVD with DTS audio from the following file.

Source details:
Quote:
General
Unique ID : xxxxxxxx
Complete name : xxxxx.mkv
Format : Matroska
Format version : Version 4
File size : 3.27 GiB
Duration : 1 h 24 min
Overall bit rate : 5 562 kb/s
Encoded date : UTC 2020-03-05 18:45:42
Writing application : mkvmerge v42.0.0 ('Overtime') 32-bit
Writing library : libebml v1.3.10 + libmatroska v1.5.2

Video
ID : 1
Format : AVC
Format/Info : Advanced Video Codec
Format profile : High@L4.1
Format settings : CABAC / 8 Ref Frames
Format settings, CABAC : Yes
Format settings, Reference frames : 8 frames
Codec ID : V_MPEG4/ISO/AVC
Duration : 1 h 24 min
Bit rate : 4 050 kb/s
Width : 1 280 pixels
Height : 720 pixels
Display aspect ratio : 16:9
Frame rate mode : Constant
Frame rate : 23.976 (24000/1001) FPS
Color space : YUV
Chroma subsampling : 4:2:0
Bit depth : 8 bits
Scan type : Progressive
Bits/(Pixel*Frame) : 0.183
Stream size : 2.39 GiB (73%)
Writing library : x264 core 159 r2991 1771b55
Encoding settings : cabac=1 / ref=8 / deblock=1:-3:-3 / analyse=0x3:0x133 / me=umh / subme=7 / psy=1 / psy_rd=1.00:0.00 / mixed_ref=1 / me_range=16 / chroma_me=1 / trellis=2 / 8x8dct=1 / cqm=0 / deadzone=21,11 / fast_pskip=1 / chroma_qp_offset=-2 / threads=16 / lookahead_threads=2 / sliced_threads=0 / nr=0 / decimate=1 / interlaced=0 / bluray_compat=0 / constrained_intra=0 / bframes=3 / b_pyramid=2 / b_adapt=2 / b_bias=0 / direct=3 / weightb=1 / open_gop=0 / weightp=2 / keyint=250 / keyint_min=23 / scenecut=40 / intra_refresh=0 / rc_lookahead=50 / rc=2pass / mbtree=1 / bitrate=4050 / ratetol=1.0 / qcomp=0.60 / qpmin=0 / qpmax=69 / qpstep=4 / cplxblur=20.0 / qblur=0.5 / ip_ratio=1.40 / aq=1:1.00
Language : English
Default : Yes
Forced : No
Color range : Limited
Matrix coefficients : BT.709

Audio
ID : 2
Format : DTS
Format/Info : Digital Theater Systems
Codec ID : A_DTS
Duration : 1 h 24 min
Bit rate mode : Constant
Bit rate : 1 509 kb/s
Channel(s) : 6 channels
Channel layout : C L R Ls Rs LFE
Sampling rate : 48.0 kHz
Frame rate : 93.750 FPS (512 SPF)
Bit depth : 24 bits
Compression mode : Lossy
Stream size : 910 MiB (27%)
Title : English
Language : English
Default : Yes
Forced : No

Menu
00:00:00.000 : en:Chapter 01
00:08:15.453 : en:Chapter 02
00:16:59.852 : en:Chapter 03
00:27:19.179 : en:Chapter 04
00:38:09.954 : en:Chapter 05
00:48:38.374 : en:Chapter 06
00:56:55.621 : en:Chapter 07
01:02:34.459 : en:Chapter 08
01:12:30.596 : en:Chapter 09
01:21:39.978 : en:Chapter 10

Last edited by mayasl; 15th March 2020 at 10:21.
mayasl is offline   Reply With Quote
Old 15th March 2020, 11:35   #3325  |  Link
Mike-uk
Registered User
 
Join Date: Jun 2018
Location: Dorset
Posts: 87
Quote:
Originally Posted by mayasl View Post
AVStoDVD ver: 2.8.8
AviSynth: 2.6

Please assist me to create a DVD with DTS audio from the following file.

Source details:
from reading, avs2dvd does not encode to DTS format only ac-3 wav and mp2 I guess this is due to licencing issues with DTS labs

it also seems DTS source audio tracks need to be 20bit or lower to be direct copied by avs2dvd, this apparently is a muxman problem ? , id guess Blu-ray source files are 24bit DTS audio, as is your MKV so will need re encoding

as quoted by Mrc, Many (I would say all) 24bit DTS tracks are refused by muxman. Sometimes it refuses 20bit tracks as well... hence the DTS compliance is not 100% solved. (wheter this is still relevant im not sure)

so I guess your options are, AC-3, or find a way of re encoding your DTS audio tracks to 20bit and hopfully avs2dvd will direct copy, and hopefully muxman will accept it

and do you really need DTS on a DVD ???, AC-3 is almost on par

on a Blu ray, yes I understand, superior picture and audio DTS-HD and master, im guessing DTS will take up more space leaving a lot less space for the video on a dvd ?, considering your compressing video from a already compressed video at only 3 gig to start with for 1hr+ of footage the sorce is prob not the best to start with

Last edited by Mike-uk; 15th March 2020 at 12:22.
Mike-uk is offline   Reply With Quote
Old 15th March 2020, 13:47   #3326  |  Link
manolito
Registered User
 
manolito's Avatar
 
Join Date: Sep 2003
Location: Berlin, Germany
Posts: 2,735
Quote:
Originally Posted by Mike-uk View Post
and do you really need DTS on a DVD ???, AC-3 is almost on par
Totally agreed...

Also keep in mind that DTS audio is not a mandatory format for DVDs, it is only optional. There are tons of standalone DVD players out there without a built-in DTS decoder. A DVD with only a DTS audio track without also having one of the mandatory audio formats is NOT DVD compliant.
manolito is offline   Reply With Quote
Reply

Thread Tools Search this Thread
Search this Thread:

Advanced Search
Display Modes

Posting Rules
You may not post new threads
You may not post replies
You may not post attachments
You may not edit your posts

BB code is On
Smilies are On
[IMG] code is Off
HTML code is Off

Forum Jump


All times are GMT +1. The time now is 08:46.


Powered by vBulletin® Version 3.8.11
Copyright ©2000 - 2020, vBulletin Solutions Inc.