Welcome to Doom9's Forum, THE in-place to be for everyone interested in DVD conversion.

Before you start posting please read the forum rules. By posting to this forum you agree to abide by the rules.

 

Go Back   Doom9's Forum > Video Encoding > MPEG-2 Encoding

Reply
 
Thread Tools Search this Thread Display Modes
Old 3rd May 2011, 16:18   #1  |  Link
encAmateur
Registered User
 
Join Date: Apr 2011
Posts: 16
Audio out of sync when converting mov to mpeg2 with k-lite and Reference

Hi,
I'm trying to convert PAL 50i mov files to mpeg2 using Main Concept Reference 2.2 and the K-lite codec pack. The problem I'm having is that 99% of the time the audio is out of sync. I managed to get around this a couple of times using the audio delay filter but as the delay is always different it's not really convenient to do this. Also, sometimes the files won't even open. I'm using Win7 64bit.

Stream Settings:

Total Bit Rate: 8000


Video Encoding Settings:


Program / Transport / System: Program

MPEG1 or MPEG2: MPEG2

PID: 481

Video Bit Rate: 7500

Frame Rate: 25

Horizontal Lines: 720

Vertical Lines: 576

Fields: Progressive

Pixel Aspect Ratio: 16x9

Full First GOP: No

I Frame Distance: 12

Profile ID: Main

Level ID: Main

VBV Buffer Size: 224

Audio Stream 1 Encoding Settings:

PCM or AC-3 or MPEG1-Layer2: MPEG1-Layer2

PID: 482

Bit Rate: 256

Sampling: 48000

Number of channels: Stereo

Any help in this would be greatly appreciated...

encAmateur
encAmateur is offline   Reply With Quote
Old 3rd May 2011, 17:56   #2  |  Link
space1999
Banned
 
Join Date: Mar 2011
Posts: 37
Please post a MediaInfo report about the contents of the problematic .MOV file.

FWIW: in my limited experience with MCR, it seems to work "best" when given a "fake" (Avisynth-based) .AVI source (created by makeAVIS, and intermediated by ffdshow).
space1999 is offline   Reply With Quote
Old 4th May 2011, 08:57   #3  |  Link
encAmateur
Registered User
 
Join Date: Apr 2011
Posts: 16
Thanks for the reply Space1999. I'm going to try that with Makeavis now and hopefully that will resolve my problems. In the meantime below is the relevant mediainfo file.

General
Complete name : /Volumes/Movies/kfb.mov
Format : MPEG-4
Format profile : QuickTime
Codec ID : qt
File size : 27.4 GiB
Duration : 2h 9mn
Overall bit rate : 30.3 Mbps
Encoded date : UTC 2011-03-03 19:45:22
Tagged date : UTC 2011-03-03 20:50:23
Writing library : Apple QuickTime
Media/UUID : 04DC77E0-4D20-4E91-BDA6-08C8870CD6FA

Video
ID : 1
Format : DV
Codec ID : dvcp
Duration : 2h 9mn
Bit rate mode : Constant
Bit rate : 24.4 Mbps
Width : 703 pixels
Original width : 720 pixels
Height : 576 pixels
Display aspect ratio : 16:9
Frame rate mode : Constant
Frame rate : 25.000 fps
Standard : PAL
Color space : YUV
Chroma subsampling : 4:2:0
Bit depth : 8 bits
Scan type : Interlaced
Compression mode : Lossy
Bits/(Pixel*Frame) : 2.414
Stream size : 26.0 GiB (95%)
Language : English
Encoded date : UTC 2011-03-03 19:45:22
Tagged date : UTC 2011-03-03 20:50:23

Audio
ID : 2
Format : PCM
Format settings, Endianness : Big
Format settings, Sign : Signed
Codec ID : twos
Duration : 2h 9mn
Bit rate mode : Constant
Bit rate : 1 536 Kbps
Channel(s) : 2 channels
Sampling rate : 48.0 KHz
Bit depth : 16 bits
Delay relative to video : 1h 0mn
Stream size : 1.39 GiB (5%)
Language : English
Encoded date : UTC 2011-03-03 19:45:22
Tagged date : UTC 2011-03-03 20:50:23

Menu
ID : 3
Language : English
Encoded date : UTC 2011-03-03 20:50:23
Tagged date : UTC 2011-03-03 20:50:23

Last edited by encAmateur; 4th May 2011 at 21:15.
encAmateur is offline   Reply With Quote
Old 6th May 2011, 09:52   #4  |  Link
encAmateur
Registered User
 
Join Date: Apr 2011
Posts: 16
Please people, if anyone has any ideas what is wrong or if I'm doing something wrong, please let me know, I'm starting to lose my mind with this file! :S
Thank you!
encAmateur is offline   Reply With Quote
Reply

Tags
audio out of sync, k-lite, main reference

Thread Tools Search this Thread
Search this Thread:

Advanced Search
Display Modes

Posting Rules
You may not post new threads
You may not post replies
You may not post attachments
You may not edit your posts

BB code is On
Smilies are On
[IMG] code is On
HTML code is Off

Forum Jump


All times are GMT +1. The time now is 10:06.


Powered by vBulletin® Version 3.8.11
Copyright ©2000 - 2022, vBulletin Solutions Inc.